Custerdome

Back to the Custerdome

Steely Dan live at Landmark Theatre, Syracuse, NY, USA on Oct 9, 2016

Date:
Oct 9, 2016
Venue:
Landmark Theatre, Syracuse, NY, USA
Tour:
The Dan Who Knew Too Much
Setlist:
  1. November Afternoon
  2. Black Cow
  3. Aja
  4. Hey Nineteen
  5. Black Friday
  6. Show Biz Kids
  7. Kid Charlemagne
  8. Time Out of Mind
  9. Razor Boy
  10. Bodhisattva
  11. Daddy Don't Live in That New York City No More
  12. Babylon Sisters
  13. I Want To (Do Everything for You)
  14. Josie
  15. Peg
  16. My Old School
  17. Reelin' in the Years
  18. Pretzel Logic
  19. The Untouchables
Notes:

Bootleg Info

Got:
Link:
No Link
Type:
AUD
Rating:
Notes:
STEELY DAN
2016 Tour
"The Dan Who New Too Much"
Landmark Theatre
362 S. Salina St
Syracuse, NY
October 10, 2016
Sunday Show started about 7:30 pm [with opening band]

A Gratefully Little Deadicated Feat Recording [2016, show #27]
***24 BIT VERSION*** NEW & ONLY SOURCE IN CIRCULATION

Aprox. 2,900+ SOLD OUT Show

Recorded, Mastering & Editing by Happy Jack [aka: dedhed69]
with Photos & Videos by phone Completed 5/6/2007

Audience Recording
Location: Seating DCFOB - About 6 rows in front of board.

Source: CA-14 [omni mics] > CA- 9200 preamp > Sony PCM-M10 > Scandisc Ultra MicroSD 8gb [class 10]
Settings: CA-9200 preamp at +30db [High Pass Filter or (Bass Roll Off) turned OFF],
Sony PCM-M10 manual record level set at 4
Recording Mode: LPCM [wav] 96.00kHz/24bit

Transfer: Sony PCM-M10 [ SanDisk Ultra [MicroSDHC] 8gb (class10)] > my Laptob HD [by way of USB] > 96.00kHz/24bit.WAV file

Lineage: 96kHz/24bit.WAV > Adobe Audition 3.0. > WaveLab6 > iZotope Ozone 3 > CD Wave Editor > TLH > Flac 24

JULIAN LAGE TRIO
OPENING Band [started at 7:30 pm]
Set List
01. Intro
02. unknown
03. unknown
04. unknown > Band Intros ^
05.The Ramble
06. unknown
07. Persiun Rug > Band Intros.
08. unknown

Show Notes
^ - Song has cut due to mic problems
VERY TALENTED GROUP of MUSICIANS. GREAT MUSIC

Source Notes
Too bad people were coming in while they were playing. So I had to Keep getting Up & Down

Band Members
Julian Lage - guitar
Hooray Roder - Stand up Bass
Eric Dube - drums

STEELY DAN [show started about 8:30 pm]
Setlist
01.November Afternoon ^
02. Black Cow
03. Aja
04. Hey Nineteen > Walter's Dan show & drink chat > Hey Nineteen
05. Black Friday
06. Show Biz Kids
06. Kid Charlemagne
07. Time Out of Mind
08. Razor Boy %
09. Bodhisattva
10. Daddy Don't Live in That New York City No More
11. Babylon Sisters
12. I Want To (Do Everything for You) > Band Intros > I Want To (Do Everything for You)
13. Josie
14. Peg
15. My Old School
16. Reelin' in the Years @
17. Encore:
18. Pretzel Logic
19. The Untouchables #

Show Notes
^ - Band Only [Donald Byrd & Booker Little cover]
% - Barenets only on vocals
* - Joe Tex cover
# - Band Only [Nelson Riddle cover]
@ - drum solo at end of song
THE DRUMMER WAS FREAKIN' FANTASTIC

Source Notes
I changed seats twice with my wife because of dam talkers. I Know I did during Track 6. I LOVE "SHOW BIZ KIDS" LIVE !!!!! As far as the talkers "Of Themselves You Know they Don't Give a F*ck About Anybody Else"

Mastering
added +db gain in 1 area & softened some claps
Not much Pretty raw. The way I like It

Band Members
MUSICIANS
Creators & Writers
Donald Fagen - fender rhodes, melodica & vocals
Walter Becker - guitars & vocals

Ryhthm Section
Jim Beard - keyboards
Keith Carlock - drums PLAYED AWESOME
Freddie Washington - bass
Jon Herington - guitars

Horn Section
Michael Leonhart - trumpet, keys
Roger Rosenberg - baritone saxophone
Walt Weiskof - tenor and alto saxophone
Jim Pugh - tenor trombone

Barenets
La Tanya Hall - Backing Vocals & percussion
Cindy Mizelle - Backing Vocals & percussion
Carolyn Leonhart-Escoffery - Backing Vocals & percussion

THIS WAS A GREAT CAPTURE DUE TO THE AWESOME VENUE & USING THE OMNI MICS. MUCH FULLER SOUND. BETTER YET THE DAN WAS ON & TIGHT !!!! GREAT SHOW & MUCH BETTER SET LIST. COMING IN AT A SOLID 2 HRS.

SUPPORT THE ARTIST
https://www.steelydan.com/
BUY There Music. Go See Them LIVE !!!

Happy Jack Final Notes
Always THANKS goes to my Wife as my wing person. She Is The Greatest Big Help !!!!!!
I was the only taper there that i could see & know at the show. ONLY SOURCE in CIRCULATION
added md5
added ffp
added shn tool.len text
added photos

DO NOT SELL !!!!

ENJOY/SHARE WITH FAMILY & FRIENDS [That you trust & just loves the music]

Happy Jack
Please beware of us old school tapers who may have lost the tolerance for being disrespected! After so many years how many end up asking for a show!!!
Please Be Kind

JULIAN LAGE TRIO
MD5
493bc8bcf3da322da4fe8df7a57dc890 *Julian Lage Trio 2016-10-09.ca14omnis.Track01. Intro.flac
ca543bf246c2d90e43dc22685bd3d6e8 *Julian Lage Trio 2016-10-09.ca14omnis.Track02. unknown.flac
09a90af32d1c08e0660a586fa838e145 *Julian Lage Trio 2016-10-09.ca14omnis.Track03. unknown.flac
18d950f6bb9c491bc492f251116161ef *Julian Lage Trio 2016-10-09.ca14omnis.Track04. unknown Band Intros .flac
968a2081cb28e27f5ef59d276b5e654d *Julian Lage Trio 2016-10-09.ca14omnis.Track05.The Ramble.flac
dbff63b9e7b277680497b20b427d489c *Julian Lage Trio 2016-10-09.ca14omnis.Track06. unknown.flac
6d8ac365fdea8d35a51c25823691d510 *Julian Lage Trio 2016-10-09.ca14omnis.Track07. Persian Rug band intros.flac
0040365767ba9ea8097ddd0ca6be3b79 *Julian Lage Trio 2016-10-09.ca14omnis.Track08. unknown.flac

length expanded size cdr WAVE problems fmt ratio filename
0:27.947 16097324 B cxx -- ---xx flac 0.5293 Julian Lage Trio 2016-10-09.ca14omnis.Track01. Intro.flac
3:50.627 132841004 B cxx -- ---xx flac 0.5619 Julian Lage Trio 2016-10-09.ca14omnis.Track02. unknown.flac
1:08.560 39490604 B cxx -- ---xx flac 0.5628 Julian Lage Trio 2016-10-09.ca14omnis.Track03. unknown.flac
2:39.040 91607084 B cxx -- ---xx flac 0.5685 Julian Lage Trio 2016-10-09.ca14omnis.Track04. unknown Band Intros .flac
5:59.720 207198764 B cxx -- ---xx flac 0.5481 Julian Lage Trio 2016-10-09.ca14omnis.Track05.The Ramble.flac
3:17.387 113694764 B cxx -- ---xx flac 0.5772 Julian Lage Trio 2016-10-09.ca14omnis.Track06. unknown.flac
4:18.827 149084204 B cxx -- ---xx flac 0.5551 Julian Lage Trio 2016-10-09.ca14omnis.Track07. Persian Rug band intros.flac
7:38.519 264106712 B cxx -- ---xx flac 0.5406 Julian Lage Trio 2016-10-09.ca14omnis.Track08. unknown.flac
29:20.625 1014120460 B 0.5544 (8 files)

STEELY DAN
MD5
b5b3e889f22f6c3f7a2c81594e8c7a2a *Steely Dan 2016-10-09.ca14omnis.Track01.November Afternoon .flac
1673a107359b8bc683d32b7a8564cec9 *Steely Dan 2016-10-09.ca14omnis.Track02. Black Cow.flac
ae92c27f0e3b720240e4d1e16595f65b *Steely Dan 2016-10-09.ca14omnis.Track03. Aja.flac
630fbe47abdae62740fff4754e9eb356 *Steely Dan 2016-10-09.ca14omnis.Track04. Hey Nineteen Walter's show Hey Nineteen .flac
411b4829fc253cd4d6bac47c2cbe1c05 *Steely Dan 2016-10-09.ca14omnis.Track05. Black Friday.flac
d852919d0732d7e65f88bb7dfd737243 *Steely Dan 2016-10-09.ca14omnis.Track06. Show Biz Kids.flac
c9a2ee32bda96e764410ef483304cc2d *Steely Dan 2016-10-09.ca14omnis.Track07. Kid Charlemagne.flac
2eb51036f9985cd41d823ce984fec187 *Steely Dan 2016-10-09.ca14omnis.Track08. Time Out of Mind.flac
9bbcf8f891afe6c20e27df806497614f *Steely Dan 2016-10-09.ca14omnis.Track09. Razor Boy .flac
6c7549e8fc7e6e60239df68430cf7fdc *Steely Dan 2016-10-09.ca14omnis.Track10. Bodhisattva.flac
89d6aec9adcf46a306d63c39a3570962 *Steely Dan 2016-10-09.ca14omnis.Track11. Daddy Don't Live in That New York City No More.flac
be73e9709cfc36e4aa0f8c2539c63958 *Steely Dan 2016-10-09.ca14omnis.Track12. Babylon Sisters.flac
360700bd3298f4a89ea5f2d9a19a2815 *Steely Dan 2016-10-09.ca14omnis.Track13. I Want To (Do Everything for You) Band Intros .flac
de51199a5c304b3984dcf06aceb2d25f *Steely Dan 2016-10-09.ca14omnis.Track14. Josie.flac
9dd1c7504179273050a61abd04b4f30e *Steely Dan 2016-10-09.ca14omnis.Track15. Peg.flac
5228158993911b14fe105ce981c19c29 *Steely Dan 2016-10-09.ca14omnis.Track16. My Old School.flac
c0332444647b6516de80a1a055a2cc21 *Steely Dan 2016-10-09.ca14omnis.Track17. Reelin' in the Years .flac
d41d8cd98f00b204e9800998ecf8427e *Steely Dan 2016-10-09.ca14omnis.Track18. Encore
ac083d703f258df751be271a7ef7e8ab *Steely Dan 2016-10-09.ca14omnis.Track19. Pretzel Logic.flac
23ee121a63dce1ad9cc31d559fce9b96 *Steely Dan 2016-10-09.ca14omnis.Track20. The Untouchables .flac

length expanded size cdr WAVE problems fmt ratio filename
4:04.133 140620844 B cxx -- ---xx flac 0.5915 Steely Dan 2016-10-09.ca14omnis.Track01.November Afternoon .flac
5:39.133 195340844 B cxx -- ---xx flac 0.5852 Steely Dan 2016-10-09.ca14omnis.Track02. Black Cow.flac
8:23.320 289912364 B cxx -- ---xx flac 0.5787 Steely Dan 2016-10-09.ca14omnis.Track03. Aja.flac
9:49.520 339563564 B cxx -- ---xx flac 0.5788 Steely Dan 2016-10-09.ca14omnis.Track04. Hey Nineteen Walter's show Hey Nineteen .flac
4:37.773 159997484 B cxx -- ---xx flac 0.5990 Steely Dan 2016-10-09.ca14omnis.Track05. Black Friday.flac
6:50.973 236720684 B cxx -- ---xx flac 0.5898 Steely Dan 2016-10-09.ca14omnis.Track06. Show Biz Kids.flac
5:43.707 197975084 B cxx -- ---xx flac 0.5945 Steely Dan 2016-10-09.ca14omnis.Track07. Kid Charlemagne.flac
6:37.587 229009964 B cxx -- ---xx flac 0.5896 Steely Dan 2016-10-09.ca14omnis.Track08. Time Out of Mind.flac
5:18.853 183659564 B cxx -- ---xx flac 0.5685 Steely Dan 2016-10-09.ca14omnis.Track09. Razor Boy .flac
5:44.893 198658604 B cxx -- ---xx flac 0.6059 Steely Dan 2016-10-09.ca14omnis.Track10. Bodhisattva.flac
3:46.013 130183724 B cxx -- ---xx flac 0.5968 Steely Dan 2016-10-09.ca14omnis.Track11. Daddy Don't Live in That New York City No More.flac
6:32.533 226099244 B cxx -- ---xx flac 0.5867 Steely Dan 2016-10-09.ca14omnis.Track12. Babylon Sisters.flac
11:40.600 403545644 B cxx -- ---xx flac 0.5798 Steely Dan 2016-10-09.ca14omnis.Track13. I Want To (Do Everything for You) Band Intros .flac
5:58.520 206507564 B cxx -- ---xx flac 0.5848 Steely Dan 2016-10-09.ca14omnis.Track14. Josie.flac
4:29.307 155120684 B cxx -- ---xx flac 0.5898 Steely Dan 2016-10-09.ca14omnis.Track15. Peg.flac
6:32.053 225822764 B cxx -- ---xx flac 0.5957 Steely Dan 2016-10-09.ca14omnis.Track16. My Old School.flac
6:20.507 219171884 B cxx -- ---xx flac 0.6072 Steely Dan 2016-10-09.ca14omnis.Track17. Reelin' in the Years .flac
6:25.853 222251564 B cxx -- ---xx flac 0.5998 Steely Dan 2016-10-09.ca14omnis.Track19. Pretzel Logic.flac
1:31.914 52942514 B cxx -- ---xx flac 0.5964 Steely Dan 2016-10-09.ca14omnis.Track20. The Untouchables .flac
116:07.194 4013104586 B 0.5890 (19 files)